Translations:Kdenlive/Manual/Project Menu/Render/54/ru

$ ffprobe dog_rotated_exp_audio.mp4
Metadata:
    major_brand     : isom
    minor_version   : 512
    compatible_brands: isomiso2avc1mp41
    encoder         : Lavf53.21.1
  Duration: 00:00:03.62, start: 0.000000, bitrate: 12598 kb/s
Stream #0.0(und): Video: h264 (High), yuv420p, 1280x720 [PAR 1:1 DAR 16:9], 12587 kb/s, 27.83 fps, 27.83 tbr, 30k tbn, 55.66 tbc
Stream #0.1(und): Audio: aac, 48000 Hz, stereo, s16, 2 kb/s

This page was last edited on 19 March 2013, at 15:39. Content is available under Creative Commons License SA 4.0 unless otherwise noted.